999
dxfrw 0.6.3
  0
SECTION
  2
HEADER
  9
$ACADVER
  1
AC1021
  9
$DWGCODEPAGE
  3
ANSI_1252
  9
$INSBASE
 10
0
 20
0
 30
0
  9
$EXTMIN
 10
-28.42613789706998
 20
-30.14116422030288
 30
0
  9
$EXTMAX
 10
330
 20
144.030243913878
 30
0
  9
$LIMMIN
 10
0
 20
0
  9
$LIMMAX
 10
420
 20
297
  9
$ORTHOMODE
 70
    0
  9
$REGENMODE
 70
    1
  9
$FILLMODE
 70
    1
  9
$QTEXTMODE
 70
    0
  9
$MIRRTEXT
 70
    0
  9
$LTSCALE
 40
1
  9
$ATTMODE
 70
    0
  9
$TEXTSIZE
 40
2.5
  9
$TRACEWID
 40
15.68
  9
$TEXTSTYLE
  7
STANDARD
  9
$CLAYER
  8
Dimention
  9
$CELTYPE
  6
BYLAYER
  9
$CECOLOR
 62
  256
  9
$CELTSCALE
 40
1
  9
$DISPSILH
 70
    0
  9
$DIMSCALE
 40
1
  9
$DIMASZ
 40
2.5
  9
$DIMEXO
 40
0.625
  9
$DIMDLI
 40
3.75
  9
$DIMRND
 40
0
  9
$DIMDLE
 40
0
  9
$DIMEXE
 40
1.25
  9
$DIMTP
 40
0
  9
$DIMTM
 40
0
  9
$DIMTXT
 40
2.5
  9
$DIMCEN
 40
2.5
  9
$DIMTSZ
 40
0
  9
$DIMTOL
 70
    0
  9
$DIMLIM
 70
    0
  9
$DIMTIH
 70
    0
  9
$DIMTOH
 70
    0
  9
$DIMSE1
 70
    0
  9
$DIMSE2
 70
    0
  9
$DIMTAD
 70
    1
  9
$DIMZIN
 70
    1
  9
$DIMBLK
  1

  9
$DIMASO
 70
    1
  9
$DIMSHO
 70
    1
  9
$DIMPOST
  1

  9
$DIMAPOST
  1

  9
$DIMALT
 70
    0
  9
$DIMALTD
 70
    3
  9
$DIMALTF
 40
0.03937
  9
$DIMLFAC
 40
1
  9
$DIMTOFL
 70
    1
  9
$DIMTVP
 40
0
  9
$DIMTIX
 70
    0
  9
$DIMSOXD
 70
    0
  9
$DIMSAH
 70
    0
  9
$DIMBLK1
  1

  9
$DIMBLK2
  1

  9
$DIMSTYLE
  2
STANDARD
  9
$DIMCLRD
 70
    0
  9
$DIMCLRE
 70
    0
  9
$DIMCLRT
 70
    0
  9
$DIMTFAC
 40
1
  9
$DIMGAP
 40
0.625
  9
$DIMJUST
 70
    0
  9
$DIMSD1
 70
    0
  9
$DIMSD2
 70
    0
  9
$DIMTOLJ
 70
    0
  9
$DIMTZIN
 70
    8
  9
$DIMALTZ
 70
    0
  9
$DIMALTTZ
 70
    0
  9
$DIMUPT
 70
    0
  9
$DIMDEC
 70
    4
  9
$DIMTDEC
 70
    2
  9
$DIMALTU
 70
    2
  9
$DIMALTTD
 70
    3
  9
$DIMTXSTY
  7
standard
  9
$DIMAUNIT
 70
    0
  9
$DIMADEC
 70
    2
  9
$DIMALTRND
 40
0
  9
$DIMAZIN
 70
    0
  9
$DIMDSEP
 70
    0
  9
$DIMATFIT
 70
    3
  9
$DIMFRAC
 70
    0
  9
$DIMLDRBLK
  1
STANDARD
  9
$DIMLUNIT
 70
    2
  9
$DIMLWD
 70
   -2
  9
$DIMLWE
 70
   -2
  9
$DIMTMOVE
 70
    0
  9
$DIMFXL
 40
1
  9
$DIMFXLON
 70
    0
  9
$DIMJOGANG
 40
0.7854
  9
$DIMTFILL
 70
    0
  9
$DIMTFILLCLR
 70
    0
  9
$DIMARCSYM
 70
    0
  9
$DIMLTYPE
  6

  9
$DIMLTEX1
  6

  9
$DIMLTEX2
  6

  9
$LUNITS
 70
    2
  9
$LUPREC
 70
    4
  9
$SKETCHINC
 40
1
  9
$FILLETRAD
 40
0
  9
$AUNITS
 70
    0
  9
$AUPREC
 70
    2
  9
$MENU
  1
.
  9
$ELEVATION
 40
0
  9
$PELEVATION
 40
0
  9
$THICKNESS
 40
0
  9
$LIMCHECK
 70
    0
  9
$CHAMFERA
 40
0
  9
$CHAMFERB
 40
0
  9
$CHAMFERC
 40
0
  9
$CHAMFERD
 40
0
  9
$SKPOLY
 70
    0
  9
$USRTIMER
 70
    1
  9
$ANGBASE
 50
0
  9
$ANGDIR
 70
    0
  9
$PDMODE
 70
   96
  9
$PDSIZE
 40
-2
  9
$PLINEWID
 40
0
  9
$SPLFRAME
 70
    0
  9
$SPLINETYPE
 70
    2
  9
$SPLINESEGS
 70
    8
  9
$HANDSEED
  5
20000
  9
$SURFTAB1
 70
    6
  9
$SURFTAB2
 70
    6
  9
$SURFTYPE
 70
    6
  9
$SURFU
 70
    6
  9
$SURFV
 70
    6
  9
$UCSBASE
  2

  9
$UCSNAME
  2

  9
$UCSORG
 10
0
 20
0
 30
0
  9
$UCSXDIR
 10
1
 20
0
 30
0
  9
$UCSYDIR
 10
0
 20
1
 30
0
  9
$UCSORTHOREF
  2

  9
$UCSORTHOVIEW
 70
    0
  9
$UCSORGTOP
 10
0
 20
0
 30
0
  9
$UCSORGBOTTOM
 10
0
 20
0
 30
0
  9
$UCSORGLEFT
 10
0
 20
0
 30
0
  9
$UCSORGRIGHT
 10
0
 20
0
 30
0
  9
$UCSORGFRONT
 10
0
 20
0
 30
0
  9
$UCSORGBACK
 10
0
 20
0
 30
0
  9
$PUCSBASE
  2

  9
$PUCSNAME
  2

  9
$PUCSORG
 10
0
 20
0
 30
0
  9
$PUCSXDIR
 10
1
 20
0
 30
0
  9
$PUCSYDIR
 10
0
 20
1
 30
0
  9
$PUCSORTHOREF
  2

  9
$PUCSORTHOVIEW
 70
    0
  9
$PUCSORGTOP
 10
0
 20
0
 30
0
  9
$PUCSORGBOTTOM
 10
0
 20
0
 30
0
  9
$PUCSORGLEFT
 10
0
 20
0
 30
0
  9
$PUCSORGRIGHT
 10
0
 20
0
 30
0
  9
$PUCSORGFRONT
 10
0
 20
0
 30
0
  9
$PUCSORGBACK
 10
0
 20
0
 30
0
  9
$USERI1
 70
    0
  9
$USERI2
 70
    0
  9
$USERI3
 70
    0
  9
$USERI4
 70
    0
  9
$USERI5
 70
    0
  9
$USERR1
 40
0
  9
$USERR2
 40
0
  9
$USERR3
 40
0
  9
$USERR4
 40
0
  9
$USERR5
 40
0
  9
$WORLDVIEW
 70
    1
  9
$SHADEDGE
 70
    3
  9
$SHADEDIF
 70
   70
  9
$TILEMODE
 70
    1
  9
$MAXACTVP
 70
   64
  9
$PINSBASE
 10
40.02964978533155
 20
81.11735458925395
 30
0
  9
$PLIMCHECK
 70
    0
  9
$PEXTMIN
 10
0
 20
0
 30
0
  9
$PEXTMAX
 10
0
 20
0
 30
0
  9
$GRIDMODE
 70
    1
  9
$SNAPSTYLE
 70
    0
  9
$GRIDUNIT
 10
0
 20
0
  9
$PLIMMIN
 10
0
 20
0
  9
$PLIMMAX
 10
420
 20
297
  9
$UNITMODE
 70
    0
  9
$VISRETAIN
 70
    1
  9
$PLINEGEN
 70
    0
  9
$PSLTSCALE
 70
    1
  9
$TREEDEPTH
 70
 3020
  9
$CMLSTYLE
  2
Standard
  9
$CMLJUST
 70
    0
  9
$CMLSCALE
 40
20
  9
$PROXYGRAPHICS
 70
    1
  9
$MEASUREMENT
 70
    1
  9
$CELWEIGHT
370
   -1
  9
$ENDCAPS
280
    0
  9
$JOINSTYLE
280
    0
  9
$LWDISPLAY
290
    0
  9
$INSUNITS
 70
    4
  9
$HYPERLINKBASE
  1

  9
$STYLESHEET
  1

  9
$XEDIT
290
    1
  9
$CEPSNTYPE
380
    0
  9
$PSTYLEMODE
290
    1
  9
$EXTNAMES
290
    1
  9
$PSVPSCALE
 40
1.17178954209141
  9
$OLESTARTUP
290
    0
  9
$SORTENTS
280
  127
  9
$INDEXCTL
280
    0
  9
$HIDETEXT
280
    1
  9
$XCLIPFRAME
290
    0
  9
$HALOGAP
280
    0
  9
$OBSCOLOR
 70
  257
  9
$OBSLTYPE
280
    0
  9
$INTERSECTIONDISPLAY
280
    0
  9
$INTERSECTIONCOLOR
 70
  257
  9
$DIMASSOC
280
    1
  9
$PROJECTNAME
  1

  9
$CAMERADISPLAY
290
    0
  9
$LENSLENGTH
 40
50
  9
$CAMERAHEIGHT
 40
0
  9
$STEPSPERSEC
 40
2
  9
$STEPSIZE
 40
50
  9
$3DDWFPREC
 40
2
  9
$PSOLWIDTH
 40
5
  9
$PSOLHEIGHT
 40
80
  9
$LOFTANG1
 40
1.570796326794897
  9
$LOFTANG2
 40
1.570796326794897
  9
$LOFTMAG1
 40
0
  9
$LOFTMAG2
 40
0
  9
$LOFTPARAM
 70
    7
  9
$LOFTNORMALS
280
    1
  9
$LATITUDE
 40
1
  9
$LONGITUDE
 40
1
  9
$NORTHDIRECTION
 40
0
  9
$TIMEZONE
 70
-8000
  9
$LIGHTGLYPHDISPLAY
280
    1
  9
$TILEMODELIGHTSYNCH
280
    1
  9
$SOLIDHIST
280
    1
  9
$SHOWHIST
280
    1
  9
$DWFFRAME
280
    2
  9
$DGNFRAME
280
    0
  9
$REALWORLDSCALE
290
    1
  9
$INTERFERECOLOR
 62
    1
  9
$CSHADOW
280
    0
  9
$SHADOWPLANELOCATION
 40
0
  0
ENDSEC
  0
SECTION
  2
CLASSES
  0
ENDSEC
  0
SECTION
  2
TABLES
  0
TABLE
  2
VPORT
  5
8
330
0
100
AcDbSymbolTable
 70
    1
  0
VPORT
  5
31
330
2
100
AcDbSymbolTableRecord
100
AcDbViewportTableRecord
  2
*ACTIVE
 70
    0
 10
0
 20
0
 11
1
 21
1
 12
198.8864725231746
 22
88.59969188199933
 13
0
 23
0
 14
10
 24
10
 15
10
 25
10
 16
0
 26
0
 36
1
 17
0
 27
0
 37
0
 40
238.8224530431206
 41
1.884274640088593
 42
50
 43
0
 44
0
 50
0
 51
0
 71
    0
 72
  100
 73
    1
 74
    3
 75
    0
 76
    1
 77
    0
 78
    0
281
    0
 65
    1
110
0
120
0
130
0
111
1
121
0
131
0
112
0
122
1
132
0
 79
    0
146
0
348
10020
 60
    7
 61
    5
292
1
282
    1
141
0
142
0
 63
  250
421
3358443
  0
ENDTAB
  0
TABLE
  2
LTYPE
  5
5
330
0
100
AcDbSymbolTable
 70
    4
  0
LTYPE
  5
14
330
5
100
AcDbSymbolTableRecord
100
AcDbLinetypeTableRecord
  2
ByBlock
 70
    0
  3

 72
   65
 73
    0
 40
0
  0
LTYPE
  5
15
330
5
100
AcDbSymbolTableRecord
100
AcDbLinetypeTableRecord
  2
ByLayer
 70
    0
  3

 72
   65
 73
    0
 40
0
  0
LTYPE
  5
16
330
5
100
AcDbSymbolTableRecord
100
AcDbLinetypeTableRecord
  2
Continuous
 70
    0
  3
Solid line
 72
   65
 73
    0
 40
0
  0
LTYPE
  5
32
330
5
100
AcDbSymbolTableRecord
100
AcDbLinetypeTableRecord
  2
DOT
 70
    0
  3
Dot . . . . . . . . . . . . . . . . . . . . . .
 72
   65
 73
    2
 40
6.35
 49
0
 74
    0
 49
-6.35
 74
    0
  0
LTYPE
  5
33
330
5
100
AcDbSymbolTableRecord
100
AcDbLinetypeTableRecord
  2
DOTTINY
 70
    0
  3
Dot (.15x) .....................................
 72
   65
 73
    2
 40
0.9525
 49
0
 74
    0
 49
-0.9525
 74
    0
  0
LTYPE
  5
34
330
5
100
AcDbSymbolTableRecord
100
AcDbLinetypeTableRecord
  2
DOT2
 70
    0
  3
Dot (.5x) .....................................
 72
   65
 73
    2
 40
3.175
 49
0
 74
    0
 49
-3.175
 74
    0
  0
LTYPE
  5
35
330
5
100
AcDbSymbolTableRecord
100
AcDbLinetypeTableRecord
  2
DOTX2
 70
    0
  3
Dot (2x) .  .  .  .  .  .  .  .  .  .  .  .  .
 72
   65
 73
    2
 40
12.7
 49
0
 74
    0
 49
-12.7
 74
    0
  0
LTYPE
  5
36
330
5
100
AcDbSymbolTableRecord
100
AcDbLinetypeTableRecord
  2
DASHED
 70
    0
  3
Dashed _ _ _ _ _ _ _ _ _ _ _ _ _ _ _ _ _
 72
   65
 73
    2
 40
19.05
 49
12.7
 74
    0
 49
-6.35
 74
    0
  0
LTYPE
  5
37
330
5
100
AcDbSymbolTableRecord
100
AcDbLinetypeTableRecord
  2
DASHEDTINY
 70
    0
  3
Dashed (.15x) _ _ _ _ _ _ _ _ _ _ _ _ _ _ _ _ _
 72
   65
 73
    2
 40
2.8575
 49
1.905
 74
    0
 49
-0.9525
 74
    0
  0
LTYPE
  5
38
330
5
100
AcDbSymbolTableRecord
100
AcDbLinetypeTableRecord
  2
DASHED2
 70
    0
  3
Dashed (.5x) _ _ _ _ _ _ _ _ _ _ _ _ _ _ _ _ _
 72
   65
 73
    2
 40
9.524999999999999
 49
6.35
 74
    0
 49
-3.175
 74
    0
  0
LTYPE
  5
39
330
5
100
AcDbSymbolTableRecord
100
AcDbLinetypeTableRecord
  2
DASHEDX2
 70
    0
  3
Dashed (2x) ____  ____  ____  ____  ____  ___
 72
   65
 73
    2
 40
38.09999999999999
 49
25.4
 74
    0
 49
-12.7
 74
    0
  0
LTYPE
  5
3A
330
5
100
AcDbSymbolTableRecord
100
AcDbLinetypeTableRecord
  2
DASHDOT
 70
    0
  3
Dash dot __ . __ . __ . __ . __ . __ . __ . __
 72
   65
 73
    4
 40
25.4
 49
12.7
 74
    0
 49
-6.35
 74
    0
 49
0
 74
    0
 49
-6.35
 74
    0
  0
LTYPE
  5
3B
330
5
100
AcDbSymbolTableRecord
100
AcDbLinetypeTableRecord
  2
DASHDOTTINY
 70
    0
  3
Dash dot (.15x) _._._._._._._._._._._._._._._.
 72
   65
 73
    4
 40
3.81
 49
1.905
 74
    0
 49
-0.9525
 74
    0
 49
0
 74
    0
 49
-0.9525
 74
    0
  0
LTYPE
  5
3C
330
5
100
AcDbSymbolTableRecord
100
AcDbLinetypeTableRecord
  2
DASHDOT2
 70
    0
  3
Dash dot (.5x) _._._._._._._._._._._._._._._.
 72
   65
 73
    4
 40
12.7
 49
6.35
 74
    0
 49
-3.175
 74
    0
 49
0
 74
    0
 49
-3.175
 74
    0
  0
LTYPE
  5
3D
330
5
100
AcDbSymbolTableRecord
100
AcDbLinetypeTableRecord
  2
DASHDOTX2
 70
    0
  3
Dash dot (2x) ____  .  ____  .  ____  .  ___
 72
   65
 73
    4
 40
50.8
 49
25.4
 74
    0
 49
-12.7
 74
    0
 49
0
 74
    0
 49
-12.7
 74
    0
  0
LTYPE
  5
3E
330
5
100
AcDbSymbolTableRecord
100
AcDbLinetypeTableRecord
  2
DIVIDE
 70
    0
  3
Divide ____ . . ____ . . ____ . . ____ . . ____
 72
   65
 73
    6
 40
31.75
 49
12.7
 74
    0
 49
-6.35
 74
    0
 49
0
 74
    0
 49
-6.35
 74
    0
 49
0
 74
    0
 49
-6.35
 74
    0
  0
LTYPE
  5
3F
330
5
100
AcDbSymbolTableRecord
100
AcDbLinetypeTableRecord
  2
DIVIDETINY
 70
    0
  3
Divide (.15x) __..__..__..__..__..__..__..__.._
 72
   65
 73
    6
 40
4.7625
 49
1.905
 74
    0
 49
-0.9525
 74
    0
 49
0
 74
    0
 49
-0.9525
 74
    0
 49
0
 74
    0
 49
-0.9525
 74
    0
  0
LTYPE
  5
40
330
5
100
AcDbSymbolTableRecord
100
AcDbLinetypeTableRecord
  2
DIVIDE2
 70
    0
  3
Divide (.5x) __..__..__..__..__..__..__..__.._
 72
   65
 73
    6
 40
15.875
 49
6.35
 74
    0
 49
-3.175
 74
    0
 49
0
 74
    0
 49
-3.175
 74
    0
 49
0
 74
    0
 49
-3.175
 74
    0
  0
LTYPE
  5
41
330
5
100
AcDbSymbolTableRecord
100
AcDbLinetypeTableRecord
  2
DIVIDEX2
 70
    0
  3
Divide (2x) ________  .  .  ________  .  .  _
 72
   65
 73
    6
 40
63.5
 49
25.4
 74
    0
 49
-12.7
 74
    0
 49
0
 74
    0
 49
-12.7
 74
    0
 49
0
 74
    0
 49
-12.7
 74
    0
  0
LTYPE
  5
42
330
5
100
AcDbSymbolTableRecord
100
AcDbLinetypeTableRecord
  2
BORDER
 70
    0
  3
Border __ __ . __ __ . __ __ . __ __ . __ __ .
 72
   65
 73
    6
 40
44.45
 49
12.7
 74
    0
 49
-6.35
 74
    0
 49
12.7
 74
    0
 49
-6.35
 74
    0
 49
0
 74
    0
 49
-6.35
 74
    0
  0
LTYPE
  5
43
330
5
100
AcDbSymbolTableRecord
100
AcDbLinetypeTableRecord
  2
BORDERTINY
 70
    0
  3
Border (.15x) __.__.__.__.__.__.__.__.__.__.__.
 72
   65
 73
    6
 40
6.6675
 49
1.905
 74
    0
 49
-0.9525
 74
    0
 49
1.905
 74
    0
 49
-0.9525
 74
    0
 49
0
 74
    0
 49
-0.9525
 74
    0
  0
LTYPE
  5
44
330
5
100
AcDbSymbolTableRecord
100
AcDbLinetypeTableRecord
  2
BORDER2
 70
    0
  3
Border (.5x) __.__.__.__.__.__.__.__.__.__.__.
 72
   65
 73
    6
 40
22.225
 49
6.35
 74
    0
 49
-3.175
 74
    0
 49
6.35
 74
    0
 49
-3.175
 74
    0
 49
0
 74
    0
 49
-3.175
 74
    0
  0
LTYPE
  5
45
330
5
100
AcDbSymbolTableRecord
100
AcDbLinetypeTableRecord
  2
BORDERX2
 70
    0
  3
Border (2x) ____  ____  .  ____  ____  .  ___
 72
   65
 73
    6
 40
88.89999999999999
 49
25.4
 74
    0
 49
-12.7
 74
    0
 49
25.4
 74
    0
 49
-12.7
 74
    0
 49
0
 74
    0
 49
-12.7
 74
    0
  0
LTYPE
  5
46
330
5
100
AcDbSymbolTableRecord
100
AcDbLinetypeTableRecord
  2
CENTER
 70
    0
  3
Center ____ _ ____ _ ____ _ ____ _ ____ _ ____
 72
   65
 73
    4
 40
50.8
 49
31.75
 74
    0
 49
-6.35
 74
    0
 49
6.35
 74
    0
 49
-6.35
 74
    0
  0
LTYPE
  5
47
330
5
100
AcDbSymbolTableRecord
100
AcDbLinetypeTableRecord
  2
CENTERTINY
 70
    0
  3
Center (.15x) ___ _ ___ _ ___ _ ___ _ ___ _ ___
 72
   65
 73
    4
 40
7.619999999999999
 49
4.7625
 74
    0
 49
-0.9525
 74
    0
 49
0.9525
 74
    0
 49
-0.9525
 74
    0
  0
LTYPE
  5
48
330
5
100
AcDbSymbolTableRecord
100
AcDbLinetypeTableRecord
  2
CENTER2
 70
    0
  3
Center (.5x) ___ _ ___ _ ___ _ ___ _ ___ _ ___
 72
   65
 73
    4
 40
28.575
 49
19.05
 74
    0
 49
-3.175
 74
    0
 49
3.175
 74
    0
 49
-3.175
 74
    0
  0
LTYPE
  5
49
330
5
100
AcDbSymbolTableRecord
100
AcDbLinetypeTableRecord
  2
CENTERX2
 70
    0
  3
Center (2x) ________  __  ________  __  _____
 72
   65
 73
    4
 40
101.6
 49
63.5
 74
    0
 49
-12.7
 74
    0
 49
12.7
 74
    0
 49
-12.7
 74
    0
  0
ENDTAB
  0
TABLE
  2
LAYER
  5
2
330
0
100
AcDbSymbolTable
 70
    1
  0
LAYER
  5
10
330
2
100
AcDbSymbolTableRecord
100
AcDbLayerTableRecord
  2
0
 70
    0
 62
    7
  6
CONTINUOUS
370
    0
390
F
  0
LAYER
  5
4A
330
2
100
AcDbSymbolTableRecord
100
AcDbLayerTableRecord
  2
Dimention
 70
    0
 62
    1
  6
CONTINUOUS
370
   13
390
F
  0
ENDTAB
  0
TABLE
  2
STYLE
  5
3
330
0
100
AcDbSymbolTable
 70
    3
  0
STYLE
  5
4B
330
2
100
AcDbSymbolTableRecord
100
AcDbTextStyleTableRecord
  2
Standard
 70
    0
 40
0
 41
1
 50
0
 71
    0
 42
1
  3
txt
  4

  0
ENDTAB
  0
TABLE
  2
VIEW
  5
6
330
0
100
AcDbSymbolTable
 70
    0
  0
ENDTAB
  0
TABLE
  2
UCS
  5
7
330
0
100
AcDbSymbolTable
 70
    0
  0
ENDTAB
  0
TABLE
  2
APPID
  5
9
330
0
100
AcDbSymbolTable
 70
    1
  0
APPID
  5
12
330
9
100
AcDbSymbolTableRecord
100
AcDbRegAppTableRecord
  2
ACAD
 70
    0
  0
APPID
  5
4C
330
9
100
AcDbSymbolTableRecord
100
AcDbRegAppTableRecord
  2
LibreCad
 70
    0
  0
ENDTAB
  0
TABLE
  2
DIMSTYLE
  5
A
330
0
100
AcDbSymbolTable
 70
    1
100
AcDbDimStyleTable
 71
    1
  0
DIMSTYLE
105
4D
330
A
100
AcDbSymbolTableRecord
100
AcDbDimStyleTableRecord
  2
Standard
 70
    0
 40
1
 41
2.5
 42
0.625
 43
0.38
 44
1.25
 45
0
 46
0
 47
0
 48
0
 49
1
140
2.5
141
0.09
142
0
143
25.4
144
1
145
0
146
1
147
0.625
148
0
 71
    0
 72
    0
 73
    0
 74
    1
 75
    0
 76
    0
 77
    0
 78
    1
 79
    0
170
    0
171
    2
172
    0
173
    0
174
    0
175
    0
176
    0
177
    0
178
    0
179
    2
271
    4
272
    4
273
    2
274
    2
275
    0
276
    0
277
    2
278
    0
279
    0
280
    0
281
    0
282
    0
283
    1
284
    0
285
    0
286
    0
288
    0
289
    3
340
4B
  0
ENDTAB
  0
TABLE
  2
BLOCK_RECORD
  5
1
330
0
100
AcDbSymbolTable
 70
    2
  0
BLOCK_RECORD
  5
1F
330
1
100
AcDbSymbolTableRecord
100
AcDbBlockTableRecord
  2
*Model_Space
 70
    0
280
    1
281
    0
  0
BLOCK_RECORD
  5
1E
330
1
100
AcDbSymbolTableRecord
100
AcDbBlockTableRecord
  2
*Paper_Space
 70
    0
280
    1
281
    0
  0
BLOCK_RECORD
  5
4E
330
1
100
AcDbSymbolTableRecord
100
AcDbBlockTableRecord
  2
*D10
 70
    0
280
    1
281
    0
  0
BLOCK_RECORD
  5
51
330
1
100
AcDbSymbolTableRecord
100
AcDbBlockTableRecord
  2
*D7
 70
    0
280
    1
281
    0
  0
BLOCK_RECORD
  5
54
330
1
100
AcDbSymbolTableRecord
100
AcDbBlockTableRecord
  2
*D5
 70
    0
280
    1
281
    0
  0
BLOCK_RECORD
  5
57
330
1
100
AcDbSymbolTableRecord
100
AcDbBlockTableRecord
  2
*D8
 70
    0
280
    1
281
    0
  0
BLOCK_RECORD
  5
5A
330
1
100
AcDbSymbolTableRecord
100
AcDbBlockTableRecord
  2
*D9
 70
    0
280
    1
281
    0
  0
BLOCK_RECORD
  5
5D
330
1
100
AcDbSymbolTableRecord
100
AcDbBlockTableRecord
  2
*D4
 70
    0
280
    1
281
    0
  0
BLOCK_RECORD
  5
60
330
1
100
AcDbSymbolTableRecord
100
AcDbBlockTableRecord
  2
*D11
 70
    0
280
    1
281
    0
  0
BLOCK_RECORD
  5
63
330
1
100
AcDbSymbolTableRecord
100
AcDbBlockTableRecord
  2
*D1
 70
    0
280
    1
281
    0
  0
BLOCK_RECORD
  5
66
330
1
100
AcDbSymbolTableRecord
100
AcDbBlockTableRecord
  2
*D2
 70
    0
280
    1
281
    0
  0
BLOCK_RECORD
  5
69
330
1
100
AcDbSymbolTableRecord
100
AcDbBlockTableRecord
  2
*D6
 70
    0
280
    1
281
    0
  0
BLOCK_RECORD
  5
6C
330
1
100
AcDbSymbolTableRecord
100
AcDbBlockTableRecord
  2
*D3
 70
    0
280
    1
281
    0
  0
ENDTAB
  0
ENDSEC
  0
SECTION
  2
BLOCKS
  0
BLOCK
  5
20
330
1F
100
AcDbEntity
  8
0
100
AcDbBlockBegin
  2
*Model_Space
 70
    0
 10
0
 20
0
 30
0
  3
*Model_Space
  1

  0
ENDBLK
  5
21
330
1F
100
AcDbEntity
  8
0
100
AcDbBlockEnd
  0
BLOCK
  5
1C
330
1B
100
AcDbEntity
  8
0
100
AcDbBlockBegin
  2
*Paper_Space
 70
    0
 10
0
 20
0
 30
0
  3
*Paper_Space
  1

  0
ENDBLK
  5
1D
330
1F
100
AcDbEntity
  8
0
100
AcDbBlockEnd
  0
BLOCK
  5
4F
330
4E
100
AcDbEntity
  8
0
100
AcDbBlockBegin
  2
*D10
 70
    1
 10
0
 20
0
  3
*D10
  1

  0
LINE
  5
6F
100
AcDbEntity
  8
Dimention
  6
ByBlock
 62
    0
370
   -2
100
AcDbLine
 10
-25.30113789706998
 20
3.552713678800501e-15
 11
-25.30113789706998
 21
12.00000000000001
  0
MTEXT
  5
70
100
AcDbEntity
  8
Dimention
  6
CONTINUOUS
 62
    0
370
   -2
100
AcDbMText
 10
-27.17613789706998
 20
6.000000000000005
 30
0
 40
2.5
 41
11.11111111111111
 71
    5
 72
    1
  1
12.0000
  7
standard
210
0
220
0
230
1
 50
90
 73
    2
 44
1
  0
SOLID
  5
71
100
AcDbEntity
  8
Dimention
  6
ByBlock
 62
    0
370
   -2
100
AcDbTrace
 10
-25.30113789706998
 20
3.552713678800501e-15
 30
0
 11
-25.71742255484282
 21
2.500000000000004
 31
0
 12
-24.88485323929714
 22
2.500000000000004
 32
0
 13
-24.88485323929714
 23
2.500000000000004
 33
0
  0
SOLID
  5
72
100
AcDbEntity
  8
Dimention
  6
ByBlock
 62
    0
370
   -2
100
AcDbTrace
 10
-25.30113789706998
 20
12.00000000000001
 30
0
 11
-24.88485323929714
 21
9.500000000000005
 31
0
 12
-25.71742255484282
 22
9.500000000000005
 32
0
 13
-25.71742255484282
 23
9.500000000000005
 33
0
  0
LINE
  5
73
100
AcDbEntity
  8
Dimention
  6
ByBlock
 62
    0
370
   -2
100
AcDbLine
 10
29.375
 20
7.653789711389858e-17
 11
-26.55113789706998
 21
3.705789473028298e-15
  0
LINE
  5
74
100
AcDbEntity
  8
Dimention
  6
ByBlock
 62
    0
370
   -2
100
AcDbLine
 10
39.375
 20
12
 11
-26.55113789706998
 21
12.00000000000001
  0
ENDBLK
  5
50
330
4E
100
AcDbEntity
  8
0
100
AcDbBlockEnd
  0
BLOCK
  5
52
330
51
100
AcDbEntity
  8
0
100
AcDbBlockBegin
  2
*D7
 70
    1
 10
0
 20
0
  3
*D7
  1

  0
LINE
  5
75
100
AcDbEntity
  8
Dimention
  6
ByBlock
 62
    0
370
   -2
100
AcDbLine
 10
40
 20
-9.402449894181416
 11
260
 21
-9.402449894181416
  0
MTEXT
  5
76
100
AcDbEntity
  8
Dimention
  6
CONTINUOUS
 62
    0
370
   -2
100
AcDbMText
 10
150
 20
-7.527449894181416
 30
0
 40
2.5
 41
13.61111111111111
 71
    5
 72
    1
  1
220.0000
  7
standard
210
0
220
0
230
1
 50
0
 73
    2
 44
1
  0
SOLID
  5
77
100
AcDbEntity
  8
Dimention
  6
ByBlock
 62
    0
370
   -2
100
AcDbTrace
 10
40
 20
-9.402449894181416
 30
0
 11
42.5
 21
-8.986165236408576
 31
0
 12
42.5
 22
-9.818734551954257
 32
0
 13
42.5
 23
-9.818734551954257
 33
0
  0
SOLID
  5
78
100
AcDbEntity
  8
Dimention
  6
ByBlock
 62
    0
370
   -2
100
AcDbTrace
 10
260
 20
-9.402449894181416
 30
0
 11
257.5
 21
-9.818734551954256
 31
0
 12
257.5
 22
-8.986165236408576
 32
0
 13
257.5
 23
-8.986165236408576
 33
0
  0
LINE
  5
79
100
AcDbEntity
  8
Dimention
  6
ByBlock
 62
    0
370
   -2
100
AcDbLine
 10
40
 20
11.375
 11
40
 21
-10.65244989418142
  0
LINE
  5
7A
100
AcDbEntity
  8
Dimention
  6
ByBlock
 62
    0
370
   -2
100
AcDbLine
 10
260
 20
11.375
 11
260
 21
-10.65244989418142
  0
ENDBLK
  5
53
330
51
100
AcDbEntity
  8
0
100
AcDbBlockEnd
  0
BLOCK
  5
55
330
54
100
AcDbEntity
  8
0
100
AcDbBlockBegin
  2
*D5
 70
    1
 10
0
 20
0
  3
*D5
  1

  0
LINE
  5
7B
100
AcDbEntity
  8
Dimention
  6
ByBlock
 62
    0
370
   -2
100
AcDbLine
 10
30
 20
-0.625
 11
30
 21
-10.48149625974175
  0
LINE
  5
7C
100
AcDbEntity
  8
Dimention
  6
ByBlock
 62
    0
370
   -2
100
AcDbLine
 10
-1.148068456708479e-16
 20
-0.625
 11
-1.925356037586784e-15
 21
-10.48149625974175
  0
LINE
  5
7D
100
AcDbEntity
  8
Dimention
  6
ByBlock
 62
    0
370
   -2
100
AcDbLine
 10
30
 20
-9.23149625974175
 11
-1.695742346245089e-15
 21
-9.23149625974175
  0
MTEXT
  5
7E
100
AcDbEntity
  8
Dimention
  6
CONTINUOUS
 62
    0
370
   -2
100
AcDbMText
 10
15
 20
-7.35649625974175
 30
0
 40
2.5
 41
11.66666666666682
 71
    5
 72
    1
  1
30.0000
  7
standard
210
0
220
0
230
1
 50
0
 73
    2
 44
1
  0
SOLID
  5
7F
100
AcDbEntity
  8
Dimention
  6
ByBlock
 62
    0
370
   -2
100
AcDbTrace
 10
30
 20
-9.23149625974175
 30
0
 11
27.5
 21
-9.64778091751459
 31
0
 12
27.5
 22
-8.81521160196891
 32
0
 13
27.5
 23
-8.81521160196891
 33
0
  0
SOLID
  5
80
100
AcDbEntity
  8
Dimention
  6
ByBlock
 62
    0
370
   -2
100
AcDbTrace
 10
-1.695742346245089e-15
 20
-9.23149625974175
 30
0
 11
2.499999999999998
 21
-8.81521160196891
 31
0
 12
2.499999999999998
 22
-9.647780917514591
 32
0
 13
2.499999999999998
 23
-9.647780917514591
 33
0
  0
ENDBLK
  5
56
330
54
100
AcDbEntity
  8
0
100
AcDbBlockEnd
  0
BLOCK
  5
58
330
57
100
AcDbEntity
  8
0
100
AcDbBlockBegin
  2
*D8
 70
    1
 10
0
 20
0
  3
*D8
  1

  0
LINE
  5
81
100
AcDbEntity
  8
Dimention
  6
ByBlock
 62
    0
370
   -2
100
AcDbLine
 10
260
 20
-28.89116422030288
 11
270
 21
-28.89116422030288
  0
MTEXT
  5
82
100
AcDbEntity
  8
Dimention
  6
CONTINUOUS
 62
    0
370
   -2
100
AcDbMText
 10
276.1805555555555
 20
-27.01616422030288
 30
0
 40
2.5
 41
11.11111111111111
 71
    5
 72
    1
  1
10.0000
  7
standard
210
0
220
0
230
1
 50
0
 73
    2
 44
1
  0
SOLID
  5
83
100
AcDbEntity
  8
Dimention
  6
ByBlock
 62
    0
370
   -2
100
AcDbTrace
 10
260
 20
-28.89116422030288
 30
0
 11
262.5
 21
-28.47487956253004
 31
0
 12
262.5
 22
-29.30744887807572
 32
0
 13
262.5
 23
-29.30744887807572
 33
0
  0
SOLID
  5
84
100
AcDbEntity
  8
Dimention
  6
ByBlock
 62
    0
370
   -2
100
AcDbTrace
 10
270
 20
-28.89116422030288
 30
0
 11
267.5
 21
-29.30744887807572
 31
0
 12
267.5
 22
-28.47487956253004
 32
0
 13
267.5
 23
-28.47487956253004
 33
0
  0
LINE
  5
85
100
AcDbEntity
  8
Dimention
  6
ByBlock
 62
    0
370
   -2
100
AcDbLine
 10
260
 20
11.375
 11
260
 21
-30.14116422030288
  0
LINE
  5
86
100
AcDbEntity
  8
Dimention
  6
ByBlock
 62
    0
370
   -2
100
AcDbLine
 10
270
 20
-0.625
 11
270
 21
-30.14116422030288
  0
ENDBLK
  5
59
330
57
100
AcDbEntity
  8
0
100
AcDbBlockEnd
  0
BLOCK
  5
5B
330
5A
100
AcDbEntity
  8
0
100
AcDbBlockBegin
  2
*D9
 70
    1
 10
0
 20
0
  3
*D9
  1

  0
LINE
  5
87
100
AcDbEntity
  8
Dimention
  6
ByBlock
 62
    0
370
   -2
100
AcDbLine
 10
270
 20
-9.23149625974175
 11
330
 21
-9.23149625974175
  0
MTEXT
  5
88
100
AcDbEntity
  8
Dimention
  6
CONTINUOUS
 62
    0
370
   -2
100
AcDbMText
 10
300
 20
-7.35649625974175
 30
0
 40
2.5
 41
11.66666666666682
 71
    5
 72
    1
  1
60.0000
  7
standard
210
0
220
0
230
1
 50
0
 73
    2
 44
1
  0
SOLID
  5
89
100
AcDbEntity
  8
Dimention
  6
ByBlock
 62
    0
370
   -2
100
AcDbTrace
 10
270
 20
-9.23149625974175
 30
0
 11
272.5
 21
-8.81521160196891
 31
0
 12
272.5
 22
-9.647780917514591
 32
0
 13
272.5
 23
-9.647780917514591
 33
0
  0
SOLID
  5
8A
100
AcDbEntity
  8
Dimention
  6
ByBlock
 62
    0
370
   -2
100
AcDbTrace
 10
330
 20
-9.23149625974175
 30
0
 11
327.5
 21
-9.64778091751459
 31
0
 12
327.5
 22
-8.81521160196891
 32
0
 13
327.5
 23
-8.81521160196891
 33
0
  0
LINE
  5
8B
100
AcDbEntity
  8
Dimention
  6
ByBlock
 62
    0
370
   -2
100
AcDbLine
 10
270
 20
-0.625
 11
270
 21
-10.48149625974175
  0
LINE
  5
8C
100
AcDbEntity
  8
Dimention
  6
ByBlock
 62
    0
370
   -2
100
AcDbLine
 10
330
 20
-0.625
 11
330
 21
-10.48149625974175
  0
ENDBLK
  5
5C
330
5A
100
AcDbEntity
  8
0
100
AcDbBlockEnd
  0
BLOCK
  5
5E
330
5D
100
AcDbEntity
  8
0
100
AcDbBlockBegin
  2
*D4
 70
    1
 10
0
 20
0
  3
*D4
  1

  0
LINE
  5
8D
100
AcDbEntity
  8
Dimention
  6
ByBlock
 62
    0
370
   -2
100
AcDbLine
 10
83.14551207678784
 20
12
 11
83.14551207678784
 21
130
  0
MTEXT
  5
8E
100
AcDbEntity
  8
Dimention
  6
CONTINUOUS
 62
    0
370
   -2
100
AcDbMText
 10
81.27051207678784
 20
71
 30
0
 40
2.5
 41
12.5
 71
    5
 72
    1
  1
118.0000
  7
standard
210
0
220
0
230
1
 50
90
 73
    2
 44
1
  0
SOLID
  5
8F
100
AcDbEntity
  8
Dimention
  6
ByBlock
 62
    0
370
   -2
100
AcDbTrace
 10
83.14551207678784
 20
12
 30
0
 11
82.729227419015
 21
14.5
 31
0
 12
83.56179673456067
 22
14.5
 32
0
 13
83.56179673456067
 23
14.5
 33
0
  0
SOLID
  5
90
100
AcDbEntity
  8
Dimention
  6
ByBlock
 62
    0
370
   -2
100
AcDbTrace
 10
83.14551207678784
 20
130
 30
0
 11
83.56179673456067
 21
127.5
 31
0
 12
82.729227419015
 22
127.5
 32
0
 13
82.729227419015
 23
127.5
 33
0
  0
LINE
  5
91
100
AcDbEntity
  8
Dimention
  6
ByBlock
 62
    0
370
   -2
100
AcDbLine
 10
73.28827493614017
 20
12
 11
84.39551207678784
 21
12
  0
LINE
  5
92
100
AcDbEntity
  8
Dimention
  6
ByBlock
 62
    0
370
   -2
100
AcDbLine
 10
78.27497027489488
 20
130
 11
84.39551207678784
 21
130
  0
ENDBLK
  5
5F
330
5D
100
AcDbEntity
  8
0
100
AcDbBlockEnd
  0
BLOCK
  5
61
330
60
100
AcDbEntity
  8
0
100
AcDbBlockBegin
  2
*D11
 70
    1
 10
0
 20
0
  3
*D11
  1

  0
SOLID
  5
93
100
AcDbEntity
  8
Dimention
  6
ByBlock
 62
    0
370
   -2
100
AcDbTrace
 10
30.20490706540939
 20
0.468637270134086
 30
0
 11
31.89785614077871
 21
-1.417421144789276
 31
0
 12
31.19534449564461
 22
-1.86424219805241
 32
0
 13
31.19534449564461
 23
-1.86424219805241
 33
0
  0
LINE
  5
94
100
AcDbEntity
  8
Dimention
  6
ByBlock
 62
    0
370
   -2
100
AcDbLine
 10
28.59487516204667
 20
3
 11
38.10598955413394
 21
-11.95379094124507
  0
MTEXT
  5
95
100
AcDbEntity
  8
Dimention
  6
CONTINUOUS
 62
    0
370
   -2
100
AcDbMText
 10
35.73755001593787
 20
-4.73630689595379
 30
0
 40
2.5
 41
9.722222222222378
 71
    5
 72
    1
  1
3.0000
  7
standard
210
0
220
0
230
1
 50
302.4577335001035
 73
    2
 44
1
  0
ENDBLK
  5
62
330
60
100
AcDbEntity
  8
0
100
AcDbBlockEnd
  0
BLOCK
  5
64
330
63
100
AcDbEntity
  8
0
100
AcDbBlockBegin
  2
*D1
 70
    1
 10
0
 20
0
  3
*D1
  1

  0
LINE
  5
96
100
AcDbEntity
  8
Dimention
  6
ByBlock
 62
    0
370
   -2
100
AcDbLine
 10
4.375
 20
130
 11
-14.1747001637112
 21
130
  0
LINE
  5
97
100
AcDbEntity
  8
Dimention
  6
ByBlock
 62
    0
370
   -2
100
AcDbLine
 10
4.375
 20
7.653789711389858e-17
 11
-14.1747001637112
 21
2.348145965311971e-15
  0
LINE
  5
98
100
AcDbEntity
  8
Dimention
  6
ByBlock
 62
    0
370
   -2
100
AcDbLine
 10
-12.9247001637112
 20
130
 11
-12.9247001637112
 21
2.195070171084174e-15
  0
MTEXT
  5
99
100
AcDbEntity
  8
Dimention
  6
CONTINUOUS
 62
    0
370
   -2
100
AcDbMText
 10
-14.7997001637112
 20
65
 30
0
 40
2.5
 41
13.05555555555571
 71
    5
 72
    1
  1
130.0000
  7
standard
210
0
220
0
230
1
 50
90
 73
    2
 44
1
  0
SOLID
  5
9A
100
AcDbEntity
  8
Dimention
  6
ByBlock
 62
    0
370
   -2
100
AcDbTrace
 10
-12.9247001637112
 20
130
 30
0
 11
-12.50841550593836
 21
127.5
 31
0
 12
-13.34098482148404
 22
127.5
 32
0
 13
-13.34098482148404
 23
127.5
 33
0
  0
SOLID
  5
9B
100
AcDbEntity
  8
Dimention
  6
ByBlock
 62
    0
370
   -2
100
AcDbTrace
 10
-12.9247001637112
 20
2.195070171084174e-15
 30
0
 11
-13.34098482148404
 21
2.500000000000002
 31
0
 12
-12.50841550593836
 22
2.500000000000002
 32
0
 13
-12.50841550593836
 23
2.500000000000002
 33
0
  0
ENDBLK
  5
65
330
63
100
AcDbEntity
  8
0
100
AcDbBlockEnd
  0
BLOCK
  5
67
330
66
100
AcDbEntity
  8
0
100
AcDbBlockBegin
  2
*D2
 70
    1
 10
0
 20
0
  3
*D2
  1

  0
LINE
  5
9C
100
AcDbEntity
  8
Dimention
  6
ByBlock
 62
    0
370
   -2
100
AcDbLine
 10
3.826894855694929e-17
 20
125.625
 11
1.050421034915383e-15
 21
142.155243913878
  0
LINE
  5
9D
100
AcDbEntity
  8
Dimention
  6
ByBlock
 62
    0
370
   -2
100
AcDbLine
 10
330
 20
125.625
 11
330
 21
142.155243913878
  0
LINE
  5
9E
100
AcDbEntity
  8
Dimention
  6
ByBlock
 62
    0
370
   -2
100
AcDbLine
 10
9.738831378014845e-16
 20
140.905243913878
 11
330
 21
140.905243913878
  0
MTEXT
  5
9F
100
AcDbEntity
  8
Dimention
  6
CONTINUOUS
 62
    0
370
   -2
100
AcDbMText
 10
165
 20
142.780243913878
 30
0
 40
2.5
 41
13.61111111111142
 71
    5
 72
    1
  1
330.0000
  7
standard
210
0
220
0
230
1
 50
0
 73
    2
 44
1
  0
SOLID
  5
A0
100
AcDbEntity
  8
Dimention
  6
ByBlock
 62
    0
370
   -2
100
AcDbTrace
 10
9.738831378014845e-16
 20
140.905243913878
 30
0
 11
2.500000000000001
 21
141.3215285716508
 31
0
 12
2.500000000000001
 22
140.4889592561051
 32
0
 13
2.500000000000001
 23
140.4889592561051
 33
0
  0
SOLID
  5
A1
100
AcDbEntity
  8
Dimention
  6
ByBlock
 62
    0
370
   -2
100
AcDbTrace
 10
330
 20
140.905243913878
 30
0
 11
327.5
 21
140.4889592561051
 31
0
 12
327.5
 22
141.3215285716508
 32
0
 13
327.5
 23
141.3215285716508
 33
0
  0
ENDBLK
  5
68
330
66
100
AcDbEntity
  8
0
100
AcDbBlockEnd
  0
BLOCK
  5
6A
330
69
100
AcDbEntity
  8
0
100
AcDbBlockBegin
  2
*D6
 70
    1
 10
0
 20
0
  3
*D6
  1

  0
LINE
  5
A2
100
AcDbEntity
  8
Dimention
  6
ByBlock
 62
    0
370
   -2
100
AcDbLine
 10
40
 20
-28.89116422030288
 11
30
 21
-28.89116422030288
  0
MTEXT
  5
A3
100
AcDbEntity
  8
Dimention
  6
CONTINUOUS
 62
    0
370
   -2
100
AcDbMText
 10
46.18055555555556
 20
-27.01616422030288
 30
0
 40
2.5
 41
11.11111111111111
 71
    5
 72
    1
  1
10.0000
  7
standard
210
0
220
0
230
1
 50
0
 73
    2
 44
1
  0
SOLID
  5
A4
100
AcDbEntity
  8
Dimention
  6
ByBlock
 62
    0
370
   -2
100
AcDbTrace
 10
40
 20
-28.89116422030288
 30
0
 11
37.5
 21
-29.30744887807572
 31
0
 12
37.5
 22
-28.47487956253004
 32
0
 13
37.5
 23
-28.47487956253004
 33
0
  0
SOLID
  5
A5
100
AcDbEntity
  8
Dimention
  6
ByBlock
 62
    0
370
   -2
100
AcDbTrace
 10
30
 20
-28.89116422030288
 30
0
 11
32.5
 21
-28.47487956253004
 31
0
 12
32.5
 22
-29.30744887807572
 32
0
 13
32.5
 23
-29.30744887807572
 33
0
  0
LINE
  5
A6
100
AcDbEntity
  8
Dimention
  6
ByBlock
 62
    0
370
   -2
100
AcDbLine
 10
40
 20
11.375
 11
40
 21
-30.14116422030288
  0
LINE
  5
A7
100
AcDbEntity
  8
Dimention
  6
ByBlock
 62
    0
370
   -2
100
AcDbLine
 10
30
 20
-0.625
 11
30
 21
-30.14116422030288
  0
ENDBLK
  5
6B
330
69
100
AcDbEntity
  8
0
100
AcDbBlockEnd
  0
BLOCK
  5
6D
330
6C
100
AcDbEntity
  8
0
100
AcDbBlockBegin
  2
*D3
 70
    1
 10
0
 20
0
  3
*D3
  1

  0
SOLID
  5
A8
100
AcDbEntity
  8
Dimention
  6
ByBlock
 62
    0
370
   -2
100
AcDbTrace
 10
0.9319623420359182
 20
127.9070723440235
 30
0
 11
-1.344090410116656
 21
129.0219161831847
 31
0
 12
-0.8600225637755725
 22
129.6993008488858
 32
0
 13
-0.8600225637755725
 23
129.6993008488858
 33
0
  0
LINE
  5
A9
100
AcDbEntity
  8
Dimention
  6
ByBlock
 62
    0
370
   -2
100
AcDbLine
 10
5
 20
125
 11
-11.04614853974729
 21
136.4667853569817
  0
MTEXT
  5
AA
100
AcDbEntity
  8
Dimention
  6
CONTINUOUS
 62
    0
370
   -2
100
AcDbMText
 10
-3.966940969846902
 20
133.7124429722391
 30
0
 40
2.5
 41
9.722222222222378
 71
    5
 72
    1
  1
5.0000
  7
standard
210
0
220
0
230
1
 50
324.4499095441998
 73
    2
 44
1
  0
ENDBLK
  5
6E
330
6C
100
AcDbEntity
  8
0
100
AcDbBlockEnd
  0
ENDSEC
  0
SECTION
  2
ENTITIES
  0
DIMENSION
  5
AB
100
AcDbEntity
  8
Dimention
  6
ByLayer
 62
  256
370
   13
100
AcDbDimension
  2
*D1
 10
-12.9247001637112
 20
4.390140342168347e-15
 30
0
 11
-14.7997001637112
 21
65
 31
0
 70
   33
 71
    5
 72
    0
  3
Standard
 53
0
210
0
220
0
230
1
100
AcDbAlignedDimension
 13
5
 23
130
 33
0
 14
5
 24
0
 34
0
  0
DIMENSION
  5
AC
100
AcDbEntity
  8
Dimention
  6
ByLayer
 62
  256
370
   13
100
AcDbDimension
  2
*D2
 10
330
 20
140.905243913878
 30
0
 11
165
 21
142.780243913878
 31
0
 70
   33
 71
    5
 72
    0
  3
Standard
 53
0
210
0
220
0
230
1
100
AcDbAlignedDimension
 13
0
 23
125
 33
0
 14
330
 24
125
 34
0
  0
DIMENSION
  5
AD
100
AcDbEntity
  8
Dimention
  6
ByLayer
 62
  256
370
   13
100
AcDbDimension
  2
*D3
 10
5
 20
125
 30
0
 11
-3.966940969846902
 21
133.7124429722391
 31
0
 70
   36
 71
    5
 72
    0
  3
Standard
 53
0
210
0
220
0
230
1
100
AcDbRadialDimension
 15
0.9319623420359182
 25
127.9070723440235
 35
0
 40
0
  0
DIMENSION
  5
AE
100
AcDbEntity
  8
Dimention
  6
ByLayer
 62
  256
370
   13
100
AcDbDimension
  2
*D4
 10
83.14551207678784
 20
130
 30
0
 11
81.27051207678784
 21
71
 31
0
 70
   32
 71
    5
 72
    0
  3
Standard
 53
0
210
0
220
0
230
1
100
AcDbAlignedDimension
 13
72.66327493614017
 23
12
 33
0
 14
77.64997027489488
 24
130
 34
0
 50
90
100
AcDbRotatedDimension
  0
DIMENSION
  5
AF
100
AcDbEntity
  8
Dimention
  6
ByLayer
 62
  256
370
   13
100
AcDbDimension
  2
*D5
 10
-1.695742346245089e-15
 20
-9.23149625974175
 30
0
 11
15
 21
-7.35649625974175
 31
0
 70
   33
 71
    5
 72
    0
  3
Standard
 53
0
210
0
220
0
230
1
100
AcDbAlignedDimension
 13
30
 23
0
 33
0
 14
0
 24
0
 34
0
  0
DIMENSION
  5
B0
100
AcDbEntity
  8
Dimention
  6
ByLayer
 62
  256
370
   13
100
AcDbDimension
  2
*D6
 10
30
 20
-28.89116422030288
 30
0
 11
35
 21
-27.01616422030288
 31
0
 70
   32
 71
    5
 72
    0
  3
Standard
 53
0
210
0
220
0
230
1
100
AcDbAlignedDimension
 13
40
 23
12
 33
0
 14
30
 24
0
 34
0
100
AcDbRotatedDimension
  0
DIMENSION
  5
B1
100
AcDbEntity
  8
Dimention
  6
ByLayer
 62
  256
370
   13
100
AcDbDimension
  2
*D7
 10
260
 20
-9.402449894181416
 30
0
 11
150
 21
-7.527449894181416
 31
0
 70
   32
 71
    5
 72
    0
  3
Standard
 53
0
210
0
220
0
230
1
100
AcDbAlignedDimension
 13
40
 23
12
 33
0
 14
260
 24
12
 34
0
100
AcDbRotatedDimension
  0
DIMENSION
  5
B2
100
AcDbEntity
  8
Dimention
  6
ByLayer
 62
  256
370
   13
100
AcDbDimension
  2
*D8
 10
270
 20
-28.89116422030288
 30
0
 11
265
 21
-27.01616422030288
 31
0
 70
   32
 71
    5
 72
    0
  3
Standard
 53
0
210
0
220
0
230
1
100
AcDbAlignedDimension
 13
260
 23
12
 33
0
 14
270
 24
0
 34
0
100
AcDbRotatedDimension
  0
DIMENSION
  5
B3
100
AcDbEntity
  8
Dimention
  6
ByLayer
 62
  256
370
   13
100
AcDbDimension
  2
*D9
 10
330
 20
-9.23149625974175
 30
0
 11
300
 21
-7.35649625974175
 31
0
 70
   32
 71
    5
 72
    0
  3
Standard
 53
0
210
0
220
0
230
1
100
AcDbAlignedDimension
 13
270
 23
0
 33
0
 14
330
 24
0
 34
0
100
AcDbRotatedDimension
  0
DIMENSION
  5
B4
100
AcDbEntity
  8
Dimention
  6
ByLayer
 62
  256
370
   13
100
AcDbDimension
  2
*D10
 10
-25.30113789706998
 20
12.00000000000001
 30
0
 11
-27.17613789706998
 21
6.000000000000005
 31
0
 70
   32
 71
    5
 72
    0
  3
Standard
 53
0
210
0
220
0
230
1
100
AcDbAlignedDimension
 13
30
 23
0
 33
0
 14
40
 24
12
 34
0
 50
90
100
AcDbRotatedDimension
  0
ARC
  5
B5
100
AcDbEntity
  8
0
  6
ByLayer
 62
  256
370
   13
100
AcDbCircle
 10
3
 20
127
 40
3
100
AcDbArc
 50
90
 51
180
  0
LINE
  5
B6
100
AcDbEntity
  8
0
  6
ByLayer
 62
  256
370
   -1
100
AcDbLine
 10
0
 20
127
 11
0
 21
3
  0
ARC
  5
B7
100
AcDbEntity
  8
0
  6
ByLayer
 62
  256
370
   13
100
AcDbCircle
 10
3
 20
3
 40
3
100
AcDbArc
 50
180
 51
270
  0
LINE
  5
B8
100
AcDbEntity
  8
0
  6
ByLayer
 62
  256
370
   13
100
AcDbLine
 10
3
 20
0
 11
28.59487516204667
 21
0
  0
ARC
  5
B9
100
AcDbEntity
  8
0
  6
ByLayer
 62
  256
370
   13
100
AcDbCircle
 10
28.59487516204667
 20
3
 40
3
100
AcDbArc
 50
270
 51
320.1944289077348
  0
LINE
  5
BA
100
AcDbEntity
  8
0
  6
ByLayer
 62
  256
370
   13
100
AcDbLine
 10
30.8995390008388
 20
1.079446801006561
 11
39.1004609991612
 21
10.92055319899344
  0
ARC
  5
BB
100
AcDbEntity
  8
0
  6
ByLayer
 62
  256
370
   13
100
AcDbCircle
 10
41.40512483795332
 20
9
 40
3
100
AcDbArc
 50
90
 51
140.1944289077347
  0
LINE
  5
BC
100
AcDbEntity
  8
0
  6
ByLayer
 62
  256
370
   13
100
AcDbLine
 10
41.40512483795332
 20
12
 11
258.5948751620467
 21
12
  0
ARC
  5
BD
100
AcDbEntity
  8
0
  6
ByLayer
 62
  256
370
   13
100
AcDbCircle
 10
258.5948751620467
 20
9
 40
3
100
AcDbArc
 50
39.80557109226533
 51
90
  0
LINE
  5
BE
100
AcDbEntity
  8
0
  6
ByLayer
 62
  256
370
   13
100
AcDbLine
 10
260.8995390008388
 20
10.92055319899345
 11
269.1004609991612
 21
1.079446801006554
  0
ARC
  5
BF
100
AcDbEntity
  8
0
  6
ByLayer
 62
  256
370
   13
100
AcDbCircle
 10
271.4051248379533
 20
3
 40
3
100
AcDbArc
 50
219.8055710922653
 51
270
  0
LINE
  5
C0
100
AcDbEntity
  8
0
  6
ByLayer
 62
  256
370
   13
100
AcDbLine
 10
271.4051248379533
 20
0
 11
327
 21
0
  0
ARC
  5
C1
100
AcDbEntity
  8
0
  6
ByLayer
 62
  256
370
   13
100
AcDbCircle
 10
327
 20
3
 40
3
100
AcDbArc
 50
270
 51
0
  0
LINE
  5
C2
100
AcDbEntity
  8
0
  6
ByLayer
 62
  256
370
   -1
100
AcDbLine
 10
330
 20
3
 11
330
 21
127
  0
LINE
  5
C3
100
AcDbEntity
  8
0
  6
ByLayer
 62
  256
370
   -1
100
AcDbLine
 10
327
 20
130
 11
3
 21
130
  0
ARC
  5
C4
100
AcDbEntity
  8
0
  6
ByLayer
 62
  256
370
   13
100
AcDbCircle
 10
327
 20
127
 40
3
100
AcDbArc
 50
0
 51
90
  0
DIMENSION
  5
C5
100
AcDbEntity
  8
Dimention
  6
ByLayer
 62
  256
370
   13
100
AcDbDimension
  2
*D11
 10
28.59487516204667
 20
3
 30
0
 11
35.73755001593787
 21
-4.73630689595379
 31
0
 70
   36
 71
    5
 72
    0
  3
Standard
 53
0
210
0
220
0
230
1
100
AcDbRadialDimension
 15
30.20490706540939
 25
0.468637270134086
 35
0
 40
0
  0
ENDSEC
  0
SECTION
  2
OBJECTS
  0
DICTIONARY
  5
C
330
0
100
AcDbDictionary
281
    1
  3
ACAD_GROUP
350
D
  0
DICTIONARY
  5
D
330
C
100
AcDbDictionary
281
    1
  0
PLOTSETTINGS
  5
C6
100
AcDbPlotSettings
  6
1x1
 40
0
 41
0
 42
0
 43
0
  0
ENDSEC
  0
EOF
